#TITLE:Face Is;
#SUBTITLE:~D-turbo original~;
#ARTIST:M1DY;
#TITLETRANSLIT:;
#SUBTITLETRANSLIT:;
#ARTISTTRANSLIT:;
#CREDIT:;
#BANNER:banner.jpg;
#BACKGROUND:face is.jpg;
#LYRICSPATH:;
#CDTITLE:dtittle.png;
#MUSIC:Face is.mp3;
#OFFSET:0.500;
#SAMPLESTART:29.503;
#SAMPLELENGTH:25.940;
#SELECTABLE:YES;
#BPMS:0.000=380.399,542.333=368.118,616.000=368.398;
#STOPS:;
#BGCHANGES:;
// cache tags:
#FIRSTBEAT:3.500;
#LASTBEAT:1068.000;
#SONGFILENAME:Songs/Chilean Keyboard Megapack 3/(D-turbo) Face is/face Is.sm;
#HASMUSIC:1;
#HASBANNER:1;
#MUSICLENGTH:170.634;
// end cache tags

//---------------dance-single - xD----------------
#NOTES:
     dance-single:
     xD:
     Challenge:
     12:
     1.000,1.000,1.000,1.000,0.284,1170.000,429.000,190.000,0.000,1.000:
0000
0000
0000
0000
0000
0000
0000
1001
,
0000
0010
0000
0100
0000
0010
0000
1000
,
0000
0001
0000
1000
0000
0100
0000
0010
,
0000
0001
0000
0100
0000
0010
0000
1000
,
0000
0001
0000
1000
0000
0100
0000
0001
,
0000
0100
0000
0010
0000
1000
0000
0100
,
0000
0000
0000
0001
0000
0000
0010
0000
0100
0000
1000
0000
0100
0000
0010
0000
0001
0000
0010
0000
0100
0000
1001
0000
,
0000
0000
0000
0000
,
0000
0000
0000
0000
0000
0000
0000
1001
,
0000
0110
0000
1100
0000
0101
0000
0110
,
0000
1001
0000
0101
0000
0110
0000
1001
,
0000
0101
0000
1010
0000
0110
0000
1001
,
0000
1010
0000
1001
0000
0101
0010
1001
,
0000
1001
0000
0011
0000
0101
0000
1100
,
0000
0011
0000
0110
0000
1100
0000
0101
,
0000
0000
0011
0000
0000
0000
0110
0000
0000
0000
1001
0000
0000
0000
0001
0010
,
0100
1000
0100
0000
0000
0000
0011
0000
0000
0000
1100
0000
0000
0000
0011
0000
,
0000
1100
0000
0110
0000
0011
0000
1001
,
0000
0110
0000
1100
0000
0011
0000
1001
,
0000
0110
0000
0101
0000
1001
0000
0101
,
0000
1010
0000
1100
0000
0011
0100
1010
,
0000
0110
0000
1001
0000
0110
0000
0011
,
0000
1010
0000
0101
0000
1100
0000
0110
,
0000
0000
0000
2002
0000
3003
0010
0100
,
0010
1000
0001
1000
0001
0100
0010
1001
,
0100
0010
1000
0001
0100
0010
1000
0001
,
0100
0010
0001
0100
1000
0010
0100
0001
,
0010
0100
1000
0010
0100
0010
0001
0010
,
0100
0000
1000
0000
0001
0010
0100
1000
0010
0000
1000
0000
0010
0000
0001
0000
,
1000
0010
0100
1000
0010
0100
0001
0100
,
0010
1000
0010
0100
1000
0010
0001
0010
,
0100
1000
0010
0100
1000
0001
1000
2002
,
0000
0000
0000
3003
0000
0000
1000
0000
0100
0000
1010
0000
0101
0000
1010
0000
0101
0000
0010
0000
0001
0000
0000
0000
,
0001
0010
1000
0001
0100
0010
1000
0001
,
0100
0010
1000
0001
0100
0010
0100
1000
,
0010
1000
0010
0100
0001
0010
1000
0010
,
1000
0001
0100
0010
0100
0010
0001
1000
,
0010
0100
0001
0010
0100
1000
0001
0100
,
0010
0100
1000
0010
0100
0001
0010
2002
,
3003
0100
0000
2002
3003
0010
0000
2002
,
3003
0100
0000
2002
3003
0010
0000
1000
,
0000
0010
0000
0100
0000
1000
0000
0001
,
0000
0010
0000
0100
0000
1000
0000
0010
,
0000
0000
0100
0000
0000
0000
0001
0000
0000
0000
0100
0000
0000
0000
1000
0100
,
0010
0001
0100
0000
0000
0000
0010
0000
0000
0000
0001
0000
0000
0000
0100
0000
,
0000
0001
0000
0010
0000
1000
0000
0010
,
0000
0100
0000
0001
0000
0010
0000
2002
,
0000
0000
0000
0000
0000
3003
0220
0000
0000
0000
0000
0000
0000
0000
2332
0000
,
0000
3003
0000
0100
0010
0001
0010
0100
,
0010
0001
0010
0100
1000
0001
1000
0100
,
0010
0100
1000
0001
0100
0010
1000
0010
,
0100
0001
0010
0100
1000
0100
0001
0010
,
0100
0010
1000
0010
0100
0001
0010
1000
,
0100
0010
0001
0100
0010
1000
0001
0100
,
0010
0000
0000
1000
0000
0000
0100
0000
0000
0010
0000
0000
0001
0000
0010
0000
0100
0000
1000
0000
0100
0000
0010
0000
,
0001
0000
0000
0000
,
0000
0000
0000
0000
,
1000
0001
1000
0001
1000
0000
0000
2002
,
0000
0000
0000
3003
0100
0010
0100
1000
,
0001
1000
0100
0010
1001
0000
0000
0000
,
0000
0000
0000
0000
0000
0000
0000
1001
,
0000
0100
0000
0010
0000
0001
0000
1000
,
0000
0001
0000
0110
1001
0000
0000
1001
,
0110
0000
0000
1000
0000
0010
0000
1000
,
0000
0001
0000
0110
1001
0000
0000
0110
,
1100
0000
0000
0100
0000
0010
0000
1000
,
0000
0010
0000
1100
0011
0000
0000
1010
,
0101
0000
0000
0001
0000
1000
0000
0100
,
0000
0010
0000
1000
0000
0010
0000
0100
,
0000
1000
0000
0010
0000
0100
0000
1000
,
0000
0001
0000
0110
1001
0000
0000
0110
,
1100
0000
0000
0001
0000
1000
0000
0100
,
0000
0001
0000
0110
1001
0000
0000
0110
,
0011
0000
0000
0100
0000
0010
0000
1000
,
0000
0010
0000
0110
1100
0000
0000
1010
,
0101
1000
0000
0100
0000
0010
0000
0100
,
0000
0000
1000
0000
0000
0000
1001
0000
0000
0000
0000
0000
0000
0000
0220
0330
,
0000
0000
0100
0000
0000
0000
2002
3003
0000
0000
0010
0000
0000
0000
0202
0303
,
0000
0000
0010
0000
0000
0000
2002
3003
0000
0000
0100
0000
0000
0000
0022
0033
,
0000
0000
1000
0000
0000
0000
2200
3300
0000
0000
0010
0000
0000
0000
2002
3003
,
0000
0000
0100
0000
0000
0000
2020
3030
0000
0000
0001
0000
0000
0000
2002
3003
,
0000
0000
0010
0000
0000
0000
0202
0303
0000
0000
1000
0000
0000
0000
0220
0330
,
0000
0000
0001
0000
0000
0000
2002
3003
0000
0000
0010
0000
0000
0000
0220
0330
,
0000
0000
1000
0000
0000
0000
2002
3003
0000
0000
0100
0000
0000
0000
2002
3003
,
0000
0000
0220
0330
0000
0000
2002
3003
0000
0000
0220
0330
0000
0000
2002
3003
,
0000
0000
0010
0000
0000
0000
2002
3003
0000
0000
1000
0000
0000
0000
0220
0330
,
0000
0000
0001
0000
0000
0000
2020
3030
0000
0000
0100
0000
0000
0000
0022
0033
,
0000
0000
0100
0000
0000
0000
2020
3030
0000
0000
0010
0000
0000
0000
2002
3003
,
0000
0000
0001
0000
0000
0000
2200
3300
0000
0000
0001
0000
0000
0000
0220
0330
,
0000
0000
1000
0000
0000
0000
0022
0033
0000
0000
0100
0000
0000
0000
0220
0330
,
0000
0000
0001
0000
0000
0000
2002
3003
0000
0000
0001
0000
0000
0000
2200
3300
,
0000
0000
0010
0000
0000
0000
2002
3003
0000
0000
0010
0000
0000
0000
2002
3003
,
0000
0000
2020
3030
0000
0000
0220
0330
0000
0000
2002
3003
0000
0000
0220
0330
,
0000
0000
0100
0000
0000
0000
2002
3003
0000
0000
0010
0000
0000
0000
2002
3003
,
0000
0000
0100
0000
0000
0000
2020
3030
0000
0000
0001
0000
0000
0000
2002
3003
,
0000
0000
0100
0000
0000
0000
2200
3300
0000
0000
0010
0000
0000
0000
2002
3003
,
0000
0000
0100
0000
0000
0000
0220
0330
0000
0000
0001
0000
0000
0000
2002
3003
,
0000
0000
0100
0000
0000
0000
0220
0330
0000
0000
1000
0000
0000
0000
0022
0033
,
0000
0000
0010
0000
0000
0000
2200
3300
0000
0000
1000
0000
0000
0000
2002
3003
,
0010
0000
0100
0000
1000
0000
0010
0000
0001
0000
1000
0000
0010
0000
0022
0033
,
0000
0000
0010
0000
0000
0000
2020
3030
0000
0000
0100
0000
0000
0000
0220
0330
,
0000
0000
0001
0000
0000
0000
2200
3300
0000
0000
1000
0000
0000
0000
0022
0033
,
0000
0000
0100
0000
0000
0000
0022
0033
0000
0000
0010
0000
0000
0000
2200
3300
,
0000
0000
0010
0000
0000
0000
0202
0303
0000
0000
0001
0000
0000
0000
2200
3300
,
0000
0000
0001
0000
0000
0000
0220
0330
0000
0000
0010
0000
0000
0000
2200
3300
,
0000
0000
0001
0000
0000
0000
0220
0330
0000
0000
0010
0000
0000
0000
2002
3003
,
0000
0000
0100
0000
0000
0000
2020
3030
0000
0000
0000
0000
0000
0000
1001
0000
,
0000
0000
0000
0000
,
0000
0000
0000
0000
,
1001
0010
1000
0100
,
0001
0100
1000
0001
,
0100
0010
1000
0001
,
0100
0000
0010
0000
1000
0001
0100
0000
,
0010
0001
0010
0100
,
0010
1000
0010
0100
,
1000
0001
0010
0100
,
1000
0000
0000
0010
1000
0010
0100
0001
0010
0001
1000
0100
,
1001
0100
0010
1000
0100
0001
0010
0100
,
0010
0100
0011
0000
0110
0000
1010
0000
,
0110
1000
0100
0001
0100
0010
1000
0100
,
0010
0001
0100
1000
0010
0100
0001
1000
,
0110
1000
0100
0001
0100
0010
0001
0010
,
0100
1000
0100
0010
0001
0100
0010
1000
,
0100
1001
1100
0011
,
0110
1001
0110
0101
,
1100
0011
0110
1001
,
0110
1010
0101
0110
,
1001
1100
0011
1100
,
0101
0011
1100
0011
,
1100
0011
1100
0110
,
0101
1010
1010
0101
,
0022
0000
0000
0000
0000
0000
0000
0033
0220
0000
0000
0000
0000
0000
0000
0330
,
2200
0000
0000
0000
0000
0000
0000
3300
0220
0000
0000
0000
0000
0000
0330
0000
,
0202
0000
0000
0000
0000
0000
0000
0303
0220
0000
0000
0000
0000
0000
0000
0330
,
2002
0000
0000
3003
0220
0000
0330
0000
0000
0000
0000
0000
2002
3003
0000
0000
,
2200
0000
3300
0000
0000
0000
0000
0000
2020
3030
0000
0000
0000
0000
0000
0000
,
2002
0000
0000
0000
0000
0000
0000
3003
0022
0000
0000
0000
0000
0000
0000
0033
,
2020
0000
0000
0000
0000
0000
0000
3030
0022
0000
0000
0000
0000
0000
0000
0033
,
0000
0000
0000
0000
0000
0000
0000
0010
,
0001
0010
0100
1000
0100
0010
0100
0001
,
0010
0100
0010
1000
0010
0100
0001
0010
,
0100
1000
0010
0100
0001
0010
0100
0010
,
1000
0010
0100
0001
0010
0100
0010
1000
,
0010
0100
0001
0100
0010
1000
0100
0001
,
0100
0010
1000
0100
0010
0001
0010
1000
,
0010
0100
0001
0010
1000
0100
0010
0001
,
1000
0010
0100
0001
1000
0010
0100
0001
,
1000
0001
0100
0010
1000
0001
0100
0001
,
0010
1000
0010
0100
0001
1000
0010
0100
,
0001
1000
0001
0100
0001
1000
0100
0010
,
0001
0010
0100
1000
0100
0010
0001
0010
,
0100
1000
0100
0010
0001
0010
0100
1000
,
0100
0000
0000
0010
0000
0000
0001
0000
0000
0010
0000
0000
0100
0000
0000
1000
0000
0000
0100
0000
0010
0000
0001
0000
,
0010
0100
1000
0100
0010
0001
0010
0100
1000
0000
0000
0000
,
1001
0000
0000
1000
0000
0010
0000
0100
,
0000
1000
0000
0100
0000
0001
0000
0100
,
0000
0010
0000
1000
0000
0001
0000
0100
,
0000
0010
0000
0001
0000
0010
0000
1000
,
0000
0010
0000
0100
0000
0001
0000
0010
,
0000
1000
0000
0100
0000
0010
0000
0001
,
0000
0010
0000
0100
0000
1000
0000
0010
,
0000
0000
0000
1000
0000
0000
0000
0000
0000
0000
0000
0000
0100
0000
1000
0000
0001
0000
1000
0000
0001
0000
1000
0000
,
0100
0000
1000
0010
0000
0000
0100
0000
0000
0010
0000
0000
1000
0000
0000
0100
0000
0000
0001
0000
0000
0100
0000
0000
,
0010
1000
0010
0001
0010
0100
1000
0010
,
0100
0001
1000
0010
0100
0001
1000
0010
,
0100
0001
1000
0100
0010
1000
0001
0100
,
0010
1000
0100
0010
0001
0010
1000
0010
,
0100
1000
0100
0010
0100
1000
0010
0001
,
1001
0000
0000
0000
,
0000
0000
0000
0000
,
1010
0101
0011
1100
,
0110
1001
0110
1010
,
0101
1010
0101
1010
,
1100
0110
1001
0110
,
0011
1010
0110
1001
,
1010
0101
0011
1100
,
0011
0110
1100
0110
,
0000
0000
1000
0000
1000
0100
0010
0100
0000
0000
0000
0000
1001
0000
0000
0000
,
0101
1010
0101
1010
,
0101
0110
1100
0011
,
0110
1001
0101
0011
,
1010
0110
0101
0011
,
1010
0110
1100
0110
,
0011
0000
0000
2002
0000
0000
3003
0220
,
0000
0000
0330
2200
0000
0000
3300
0022
,
0000
0000
0033
0220
0330
0100
0000
0010
,
0000
0100
0000
0010
0000
0100
0000
1000
,
0000
0001
0000
1000
0000
0001
0000
1000
,
0000
0001
0000
1000
0000
0001
0000
1000
,
0000
0001
0000
0010
0000
0100
0000
1000
,
0000
0000
0000
0010
0000
0000
0000
0000
0000
1000
0000
0000
0100
0000
0010
0000
1000
0000
0001
0000
0100
0000
0010
0000
,
1000
0001
0100
0010
1001
0000
0000
0000
0000
0000
0000
0000
,
0000
0000
0000
0000
,
0000
0000
0000
1001
0000
1000
0000
0110
,
0000
0100
0000
0011
0000
1000
0000
1100
,
0000
0001
0000
0110
0000
1000
0000
1001
,
0000
0000
0000
1000
0000
0001
1000
0000
0001
1000
0000
0000
,
0000
1001
0100
1001
,
0010
0011
1000
1010
,
0100
0010
1000
0100
,
0001
0010
0100
1000
,
0100
0001
0100
0010
,
1000
0100
0010
0001
,
0100
0010
1000
0001
,
0100
0010
1000
0001
,
1000
0010
0100
1000
,
0010
0100
0001
0220
,
0000
0000
0000
0000
0330
0000
0000
0000
0000
0000
0100
0010
0100
0010
0100
0010
,
0100
0010
0100
0010
0100
0010
0100
0010
0100
0000
0000
0000
0000
0000
0000
0000
,
0000
1001
0000
0000
0000
0110
0000
0000
,
0000
0101
0000
0000
0000
1010
0000
0000
,
0000
1010
0000
0000
0000
0000
0000
0000
0000
0000
0110
0000
0000
0000
0000
0000
,
0000
0101
0000
0000
0000
0000
0000
0000
0000
0110
0000
0000
0000
0000
0000
0000
,
0000
0011
0000
0000
0000
0000
0000
0000
1100
0000
0000
0000
0000
0000
0000
0000
,
0101
0000
0000
0000
0000
0000
0000
0000
1010
0000
0000
0000
0000
0000
0000
0101
,
0000
0000
0000
0000
0000
0000
0000
0101
0000
0000
0000
1010
0000
0000
0000
0101
,
0000
0000
0000
0011
0000
0000
0000
1100
0000
0000
0000
0000
0000
0000
1001
0000
,
0000
0000
0000
0110
0000
0000
0000
1010
,
0000
0000
0000
0000
0000
1001
0000
0000
0000
0000
0000
0000
0000
0011
0000
0000
,
0000
0000
0000
0000
0000
1100
0000
0000
0000
0000
0000
0000
0000
0110
0000
0000
,
0000
0000
0000
0000
0000
0011
0000
0000
0000
0000
0000
0000
0000
0110
0000
0000
,
0000
1001
0000
0110
,
0000
0000
0000
0011
0000
0000
0000
0000
0000
0000
0000
1100
0000
0000
0000
0000
,
0000
0000
0000
0101
0000
0000
0000
1100
0000
0000
0000
0110
0000
0000
0000
1001
,
0000
0110
0000
0000
0000
1001
0000
0000
,
0000
1100
0000
0000
0000
0011
0000
0000
,
0000
0000
0110
0000
0000
0000
0000
0000
0000
1010
0000
0000
0000
0000
0000
0000
,
0000
1001
0000
0000
0000
0000
0000
0000
0000
1001
0000
0000
0000
0000
0000
0000
,
0000
0110
0000
0000
0000
0000
0000
0000
0000
1100
0000
0000
0000
0000
0000
0000
,
0110
0000
0011
0000
,
1010
0000
0000
0000
0000
0000
0000
1001
0000
0000
0000
0000
0000
0000
0000
0000
,
1010
0000
0000
0000
0000
0000
0000
1001
0000
0000
0000
0000
0000
0000
0000
0000
,
1010
0000
0000
0000
0000
0000
0000
0011
0000
0000
0000
0000
0000
0000
0000
1100
,
0000
0000
0000
1001
0000
0000
0000
1100
,
0000
0000
0000
0101
0000
0000
0000
0110
,
0000
0000
0000
1001
0000
0000
0000
1010
,
0000
0000
0000
0000
0000
0101
0000
0000
0000
0000
0000
0000
0000
1001
0000
0000
,
0000
0110
0000
1001
,
0000
0000
0000
0000
,
0000
0000
0000
1001
,
0101
0110
0110
1001
,
0110
0011
1100
1010
,
0110
0101
0101
1010
,
1010
0110
0011
0101
,
0101
1010
1010
1100
,
0011
1010
0110
0011
,
1100
0000
0000
0110
0000
0000
1100
0000
0000
0011
1000
0100
,
1010
0101
1010
0101
0010
0001
0000
0000
0000
0000
0000
0000
,
0000
0000
0000
0000
,
0000
0000
0000
0000
,
0000
0000
0000
0000
,
0000
0000
0000
1010
0000
0101
0000
0011
,
0000
1100
0000
0101
0000
0110
0000
1100
,
0000
0011
0000
0101
0000
1010
0000
0110
,
0000
1010
0000
0011
0000
1001
0000
0110
,
0000
1010
0000
0101
0000
0101
0000
1010
,
0000
0011
0000
1100
0000
0101
0000
1001
,
0000
0110
0000
1001
0000
0110
0000
1001
,
0000
0110
0000
1100
0000
0011
0000
0101
,
0000
1100
0000
0000
1010
0000
0000
0000
,
0101
0000
1001
0000
,
1001
0000
1001
0000
,
1001
0110
0000
0110
,
1001
0000
0110
0000
,
1010
0000
0101
0000
,
1010
0000
0000
0000
0101
0000
0100
0010
,
0001
0100
0010
1000
0010
0100
2002
0000
,
3003
0000
0000
0000
;
